<?xml version="1.0" standalone="no"?>
<!DOCTYPE svg PUBLIC "-//W3C//DTD SVG 1.1//EN" "http://www.w3.org/Graphics/SVG/1.1/DTD/svg11.dtd">
<svg xmlns="http://www.w3.org/2000/svg">
<metadata>Copyright (C) 2024 by original authors @ fontello.com</metadata>
<defs>
<font id="lunasquee-site" horiz-adv-x="1000" >
<font-face font-family="lunasquee-site" font-weight="400" font-stretch="normal" units-per-em="1000" ascent="850" descent="-150" />
<missing-glyph horiz-adv-x="1000" />
<glyph glyph-name="language-typescript" unicode="&#xe800;" d="M125 725h750v-750h-750v750m446-619c21-41 63-72 129-72 67 0 117 34 117 98 0 59-34 85-94 111l-18 7c-30 13-43 22-43 43 0 17 13 30 34 30 20 0 33-8 45-30l55 36c-23 40-56 56-100 56-63 0-103-40-103-93 0-58 33-85 84-107l18-7c32-14 51-23 51-47 0-20-18-35-48-35-34 0-54 18-69 43l-58-33m-29 275h-209v-62h63v-302h73v302h73v62z" horiz-adv-x="1000" />

<glyph glyph-name="language-javascript" unicode="&#xe801;" d="M125 725h750v-750h-750v750m197-627c17-35 50-64 106-64 62 0 105 33 105 106v241h-70v-239c0-36-15-45-38-45-24 0-34 16-45 36l-58-35m249 8c21-41 63-72 129-72 67 0 117 34 117 98 0 59-34 85-94 111l-18 7c-30 13-43 22-43 43 0 17 13 30 34 30 20 0 33-8 45-30l55 36c-23 40-56 56-100 56-63 0-103-40-103-93 0-58 33-85 84-107l18-7c32-14 51-23 51-47 0-20-18-35-48-35-34 0-54 18-69 43l-58-33z" horiz-adv-x="1000" />

<glyph glyph-name="nodejs" unicode="&#xe802;" d="M500 773c-11 0-23-3-32-8l-310-180c-20-11-33-33-33-56v-358c0-23 13-45 33-56l81-47c39-19 53-20 71-20 58 0 92 36 92 97v353c0 5-4 10-9 10h-39c-5 0-9-5-9-10v-353c0-27-29-54-74-31l-86 49c-2 2-4 5-4 8v358c0 4 2 7 4 9l310 178c3 2 7 2 10 0l310-178c3-2 4-5 4-9v-358c0-3-1-6-4-8l-310-179c-3-2-7-2-10 0l-78 47c-4 2-7 2-9 1-22-13-26-15-47-22-5-1-13-4 3-13l104-61c10-6 20-9 32-9 12 0 23 3 33 9l310 179c20 11 32 33 32 56v358c0 23-12 45-32 56l-310 180c-10 5-21 8-33 8m83-256c-88 0-141-37-141-100 0-67 53-87 138-95 101-10 109-25 109-45 0-34-28-49-93-49-83 0-100 20-106 61-1 4-5 8-10 8h-40c-5 0-8-4-8-9 0-52 28-115 164-115 98 0 154 39 154 107 0 67-45 84-140 97-97 13-106 19-106 42 0 19 8 44 79 44 63 0 87-14 97-57 1-4 5-7 9-7h40c2 0 5 1 6 3 2 1 3 4 3 6-6 75-55 109-155 109z" horiz-adv-x="1000" />

<glyph glyph-name="nestjs" unicode="&#xe803;" d="M591 850c-7 0-14-2-20-4 13-8 20-20 24-33 0-2 1-3 1-5 0-2 1-3 1-5 1-23-6-26-11-39-8-17-6-36 3-51 1-2 2-4 3-6-9 66 45 76 55 96 1 18-14 30-25 38-11 7-21 9-31 9z m83-15c-1-6-1-4-1-7 0-2 0-5 0-7-1-2-1-4-2-6-1-2-2-4-2-6-1-3-2-4-3-6-1-1-1-2-2-4-1 0-1-1-2-2-1-2-2-3-4-5-1-2-3-3-4-5 0 0 0 0 0 0-2-1-3-3-5-4-6-4-12-7-18-11-1-2-3-3-5-4-2-1-3-3-5-4-2-2-3-3-4-5-2-2-3-4-4-5-2-2-3-4-4-6-1-2-2-4-3-6-1-2-1-4-2-6-1-2-1-4-2-6 0-1 0-3 0-4 0-1 0-2-1-3 0-2 0-4 0-6 0-2 0-3 0-5 0-2 1-4 1-6 0-2 1-5 1-7 1-2 2-4 2-6 1-1 2-2 2-3l-59 23c-10 2-20 5-30 7-6 2-11 3-17 4-15 3-31 6-47 7 0 0-1 1-1 1-16 1-31 2-47 2-11 0-22-1-34-1-15-1-31-4-47-6-4-1-8-1-12-2-8-2-16-4-23-5-4-1-8-2-12-3-4-2-7-4-11-5-3-2-6-3-8-4-1-1-2-1-2-1-2-1-5-2-7-3-1-1-1-1-2-1-3-2-6-3-8-4-2-1-4-2-5-3-1 0-2-1-2-1-3-2-5-3-7-4-2-1-5-3-6-4-2-1-4-2-6-4 0 0 0 0 0 0-2-1-4-3-5-4 0 0-1 0-1 0-1-1-2-2-4-3 0-1-1-1-1-1-2-2-3-3-4-4 0 0-1-1-1-1-2-1-3-3-5-4 0 0 0-1 0-1-2-1-3-3-5-4 0 0 0-1-1-1-1-1-2-2-3-4-1 0-2-1-2-1-2-2-3-4-5-5 0-1 0-1-1-1-2-2-4-5-6-7 0 0 0 0 0 0-5-5-9-9-14-13-4-4-9-8-14-12-5-3-10-6-16-9-5-3-10-6-16-8-5-2-11-5-17-6-11-3-22-7-32-8-2 0-4 0-6-1-2 0-4-1-6-1-3-1-5-2-7-3-2 0-4-1-6-2-2-2-4-3-6-4-1-1-3-3-5-4-2-2-3-4-5-5-2-2-3-3-4-5-2-2-3-4-4-6-2-2-3-4-4-6-1-3-2-5-3-7-1-2-1-4-2-7-1-2-1-4-1-6 0 0-1 0-1-1 0-2 0-5 0-7-1-2-1-3-1-5 0-1 0-2 0-3 1-2 1-4 1-5 1-2 1-3 2-5 0 0 0 0 0 0 1-2 2-3 3-5 1-1 2-3 3-4 2-2 3-3 5-5 1-1 3-2 5-4 6-5 7-7 16-11 1-1 2-1 4-2 0 0 0 0 0 0 0-1 0-1 1-2 0-2 0-4 1-6 1-2 1-4 2-6 1-2 1-3 2-5 0 0 1-1 1-1 1-2 2-4 3-6 1-2 3-4 4-5 1-2 3-4 4-5 2-2 3-3 5-5 0 0 1 0 1 0 1-1 3-3 4-4 2-1 4-2 6-3 2-1 4-2 6-3 2-1 3-1 5-2 1 0 1 0 1 0 1 0 3-1 4-1-1-14-1-27 1-32 2-5 13 11 25 29-2-18-3-39 0-45 3-7 18 14 32 36 184 42 351-85 369-264-3 28-38 44-54 40-7-20-21-44-42-59 2 17 1 34-3 51-5-23-16-46-32-65-24-2-49 10-62 28-1 1-1 2-2 3-1 2-2 4-2 6-1 2-1 4-2 5 0 2 0 4 0 6 0 1 0 3 0 4 0 2 1 4 1 5 1 2 1 4 2 6 1 2 2 3 3 5 5 13 5 23-3 29-2 1-3 2-5 2-1 1-3 1-4 1 0 1-1 1-2 1-1 1-3 1-5 1-2 1-4 1-6 1-1 1-3 1-5 1-2 0-3 0-4 0-2 0-4-1-6-1-2-1-3-1-5-1-2-1-4-1-6-2-2-1-3-2-5-2-1-1-3-2-5-3-60-39-24-132 17-158-16-3-31-7-36-10 0 0 0-1 0-1 11-6 23-12 35-17 16-5 34-10 42-12 0 0 0-1 0-1 21-4 43-6 65-4 115 8 209 95 226 210 1-2 1-4 2-7 0-4 2-9 2-14 0 0 0 0 0 0 1-3 1-5 1-7 0-1 0-1 0-1 0-2 1-5 1-7 0-3 0-6 0-8 0-2 0-3 0-5 0-1 0-2 0-4 0-1 0-3 0-4 0-2 0-3 0-4 0-2 0-3 0-5 0-1 0-2 0-4 0-1-1-3-1-5 0-1 0-2 0-3 0-2 0-3-1-6 0 0 0-1 0-2 0-2-1-5-1-7 0 0 0-1 0-1l0 0c-1-2-1-5-2-7 0 0 0-1 0-1 0-2-1-5-1-7 0 0 0-1 0-1-1-2-1-5-2-7 0 0 0 0 0-1-1-2-2-5-2-7-1 0-1-1-1-1 0-2-1-5-2-7-1-3-2-5-3-8-1-2-2-5-3-7-1-3-2-5-3-8 0 0 0 0 0 0-1-2-2-5-3-7 0 0 0 0 0 0 0 0 0 0 0 0-1-1-1-1-1-2 0 0 0 0-1-1-16-34-41-64-72-87-3-1-5-3-7-4 0 0 0 0 0 0 0-1-1-1-1-2-2-1-4-2-6-4l1-1 0 0c3 0 7 1 11 1l0 0c7 2 13 3 20 4 2 0 4 1 6 1 1 1 2 1 4 1 1 0 3 1 5 1 2 1 3 1 5 2 26 6 51 14 75 24-41-56-97-101-161-131 30 2 59 7 88 15 105 31 193 101 245 196-10-60-34-117-69-167 25 17 48 36 69 58 58 61 96 138 109 220 9-41 11-83 7-125 188 261 16 532-56 603 0 1 0 1 0 2-1-1-1-1-1-1 0 0 0 0 0 1 0-3 0-7 0-10-1-6-2-11-3-17-1-6-3-11-4-17-2-6-4-11-7-17-2-5-5-10-7-16-3-4-6-10-10-14-3-5-7-10-10-14-4-5-8-9-13-13-2-3-4-5-7-7-2-2-4-3-6-5-5-4-9-7-15-10-4-3-10-6-15-9-5-2-11-5-16-7-6-2-11-4-17-6-6-1-12-2-17-3-6-1-12-2-18-3-4 0-8 0-12 0-6 0-12 0-18 1-6 1-12 1-18 3-6 1-11 2-17 4l0 0c5 1 11 1 17 2 6 1 11 2 17 4 6 2 12 3 17 5 6 2 11 5 16 8 6 2 11 5 16 8 5 4 10 7 14 11 5 3 9 7 14 11 4 4 8 9 12 13 4 5 7 9 11 14 0 1 1 2 1 3 3 4 5 8 8 12 3 5 5 10 8 16 2 5 4 11 6 16 2 6 3 12 4 17 1 6 2 12 3 18 0 6 1 12 1 17 0 4 0 9-1 13 0 6-1 11-2 17-1 6-2 12-4 17-2 6-3 12-5 17-2 5-5 11-8 16-3 5-5 10-8 15-4 5-7 10-11 15-4 4-8 8-12 13-2 2-4 4-7 6-11 9-23 18-36 26-1 1-3 2-5 2-8 6-16 9-24 11l0 0z" horiz-adv-x="1004" />

<glyph glyph-name="angular" unicode="&#xe804;" d="M500 746l368-131-55-488-313-173-312 173-56 488 368 131m0-88l-230-516h85l47 116h196l46-116h85l-229 516m68-329h-135l67 161 68-161z" horiz-adv-x="1000" />

<glyph glyph-name="language-python" unicode="&#xe805;" d="M798 538c65 0 119-54 119-120v-157c0-66-54-119-119-119h-298c0-17 13-40 30-40h178v-70c0-66-53-120-119-120h-178c-66 0-119 54-119 120v156c0 66 53 119 119 119h219c65 0 118 53 118 119v112h50m-179-492c-16 0-30-12-30-37 0-24 14-29 30-29 16 0 30 13 30 29 0 25-14 37-30 37m-416 75c-66 0-120 53-120 119v158c0 65 54 119 120 119h297c0 16-13 40-30 40h-178v70c0 66 53 119 119 119h178c66 0 119-53 119-119v-157c0-65-53-118-119-118h-219c-65 0-118-54-118-119v-112h-49m178 491c17 0 30 13 30 37 0 25-13 30-30 30-16 0-30-5-30-30 0-24 14-37 30-37z" horiz-adv-x="1000" />

<glyph glyph-name="language-lua" unicode="&#xe806;" d="M438 642c-196 0-355-159-355-354 0-196 159-355 355-355 195 0 354 159 354 355 0 195-159 354-354 354m125-334c-58 0-105 47-105 105 0 57 47 104 105 104 57 0 104-47 104-104 0-58-47-105-104-105m250 459c-58 0-105-47-105-104 0-58 47-105 105-105 57 0 104 47 104 105 0 57-47 104-104 104" horiz-adv-x="1000" />

<glyph glyph-name="language-java" unicode="&#xe807;" d="M688 597c0 0-285-72-149-229 41-46-10-88-10-88 0 0 102 53 54 119-44 61-77 92 105 198m-187-50c169 133 82 220 82 220 35-138-123-179-180-265-39-59 19-122 97-194-30 71-134 132 1 239m-111-425c-128-36 79-109 242-40-16 6-32 14-46 23-57-13-115-16-173-8-54 7-23 25-23 25m222 70c-73-16-148-19-222-11-55 6-19 32-19 32-142-47 78-100 275-42-12 4-24 12-34 21m143-137c0 0 23-20-26-35-95-28-393-37-475-1-30 13 26 31 44 34 9 3 19 4 28 4-33 22-213-46-91-65 332-55 606 25 520 63m-115 202c13 8 25 15 39 21 0 0-63-11-126-17-67-7-134-8-200-3-98 13 53 50 53 50-46 0-91-10-131-31-86-42 212-60 365-20m38-101c-1-1-2-3-3-4 208 55 132 193 32 159-6-3-10-6-13-11 6 3 11 4 18 5 50 10 121-67-34-149m5-192c-125-22-253-23-380-6 0 0 20-16 117-22 150-9 381 6 386 77 2-1-9-28-123-49z" horiz-adv-x="1000" />

<glyph glyph-name="rss-box" unicode="&#xe808;" d="M208 725h584c46 0 83-37 83-83v-584c0-45-37-83-83-83h-584c-45 0-83 38-83 83v584c0 46 38 83 83 83m105-500c-35 0-63-28-63-62 0-35 28-63 63-63 34 0 62 28 62 63 0 34-28 62-62 62m-63 208v-83c138 0 250-112 250-250h83c0 184-149 333-333 333m0 167v-83c230 0 417-187 417-417h83c0 276-224 500-500 500z" horiz-adv-x="1000" />

<glyph glyph-name="controller-classic" unicode="&#xe809;" d="M250 558h500c115 0 208-93 208-208 0-115-93-208-208-208-68 0-129 33-167 83h-166c-38-50-99-83-167-83-115 0-208 93-208 208 0 115 93 208 208 208m573-104c-29 0-52-23-52-52 0-29 23-52 52-52 29 0 52 23 52 52 0 29-23 52-52 52m-104-104c-29 0-52-23-52-52 0-29 23-52 52-52 29 0 52 23 52 52 0 29-23 52-52 52m-511 125v-83h-83v-84h83v-83h84v83h83v84h-83v83h-84z" horiz-adv-x="1000" />

<glyph glyph-name="key-variant" unicode="&#xe80a;" d="M917 100v-167h-167v125h-125v125h-125l-94 95c-23-8-47-11-73-11-138 0-250 112-250 250 0 138 112 250 250 250 138 0 250-112 250-250 0-26-3-50-10-73l344-344m-625 542c-46 0-84-38-84-84 0-45 38-83 84-83 46 0 83 38 83 83 0 46-37 84-83 84z" horiz-adv-x="1000" />

<glyph glyph-name="icynet" unicode="&#xe80b;" d="M846 819l-377-57h-381v-25l-25-1 3-35-35-5 57-377v-381h25l1-25 35 2 5-34 377 57h381v25l25 1-2 34 34 6-57 377v381h-25l-1 25-34-2-6 34z m-402-134c18 0 35-2 51-6 17-4 33-10 48-18v-65a179 179 0 0 1-45 22c-15 5-31 8-47 8-29 0-52-10-69-28s-25-45-25-78 8-59 25-77 40-29 69-29c16 0 32 3 47 8 14 5 29 12 45 22v-65a210 210 0 0 0-48-18c-16-4-33-6-51-6-53 0-95 15-126 44-31 30-46 70-46 121s15 91 46 121 73 44 126 44z m-316-6h82v-318h-82v318z m438 0h90l72-113 73 113h90l-121-184v-134h-83v134z m88-447h53v-47h54v-37h-54v-70c0-8 1-13 4-16 3-2 9-4 18-4h27v-37h-45c-21 0-35 4-44 13-9 9-13 23-13 44v70h-26v37h26v47z m-315-43c19 0 33-6 43-17 10-12 15-29 15-51v-100h-53v76l-1 30c0 5-1 9-3 12-2 3-5 6-8 8-4 1-8 3-12 3a30 30 0 0 1-26-13c-6-9-9-20-9-35v-81h-53v164h53v-24c7 10 16 17 25 21s18 7 29 7z m185 0c26 0 47-8 62-23 16-16 24-37 24-62v-15h-123c1-13 6-22 13-28 8-6 18-9 32-9 11 0 22 1 34 4 11 4 23 9 36 15v-40c-13-5-25-8-38-11-12-2-24-3-37-3-29 0-53 7-69 22-16 15-25 37-25 64 0 27 8 48 25 63 16 15 38 23 66 23z m0-35c-10 0-18-3-25-8-6-6-10-14-12-25h69c0 10-3 18-9 24-6 6-14 9-23 9z" horiz-adv-x="1000" />

<glyph glyph-name="gitlab" unicode="&#xe80c;" d="M914 304l-44 134c0 1 0 2 0 4l-88 270c-5 13-18 23-34 23-15 0-28-10-33-24l-83-257h-264l-83 257c-5 14-18 24-33 24h0c-16 0-29-10-34-24l-88-270c0 0 0-1 0-1l-44-136c-7-21 0-44 18-56l384-280c7-5 17-5 24 1l384 279c18 12 25 35 18 56m-574 111l107-330-257 330m363-330l103 316 4 14h151l-233-299m171 570l75-232h-151m-54-39l-74-230-45-137-119 367m-130 271l76-232h-151m-49-174c-4 3-5 8-4 12l33 101 243-310m474 197l-271-197 1 1 241 309 33-101c1-4 0-9-4-12" horiz-adv-x="1000" />

<glyph glyph-name="web" unicode="&#xe80d;" d="M682 267c3 27 6 55 6 83 0 28-3 56-6 83h141c6-26 10-54 10-83 0-29-4-57-10-83m-215-232c25 46 44 96 57 148h123c-40-68-103-122-180-148m-10 232h-195c-5 27-7 55-7 83 0 28 2 56 7 83h195c3-27 6-55 6-83 0-28-3-56-6-83m-98-249c-35 50-62 106-80 165h160c-17-59-45-115-80-165m-167 499h-121c39 69 103 122 180 148-25-46-44-96-59-148m-121-334h121c15-52 34-102 59-148-77 26-141 80-180 148m-34 84c-7 26-11 54-11 83 0 29 4 57 11 83h140c-3-27-5-55-5-83 0-28 2-56 5-83m182 415c35-50 63-106 80-165h-160c18 59 45 115 80 165m288-165h-123c-13 52-32 102-57 148 77-26 140-79 180-148m-288 250c-230 0-417-188-417-417 0-230 187-417 417-417 230 0 417 187 417 417 0 230-187 417-417 417z" horiz-adv-x="1000" />

<glyph glyph-name="flutter" unicode="&#xe80e;" d="M595-114c-2 1-62 59-132 130-126 126-128 128-128 137 0 9 2 11 130 139l130 130h132c89 0 132 0 136-2 7-4 11-17 8-24-1-4-55-60-120-125l-118-118 117-117c65-65 119-120 120-124 3-6 3-9 1-14-5-15-3-14-143-14-71 0-130 1-133 2z m205 41c0 2-193 195-196 195-1 0-23-21-49-47l-47-47 103-103h95c52 0 94 1 94 2z m-94 454l-95 0-113-113c-62-62-113-114-113-115 0-1 21-23 47-49l46-46 322 322z m-511-97c-66 66-67 67-67 76 0 10 0 10 223 233l222 222 130 1c97 1 132 0 137-2 10-4 14-16 10-26-2-4-118-122-286-289-280-280-283-283-292-283-9 0-11 2-77 68z m332 235c139 139 253 254 253 255 0 1-43 1-95 1h-94l-415-414 47-47c26-26 48-47 49-47 1 0 116 113 255 252z" horiz-adv-x="1000" />

<glyph glyph-name="language-lua-variant" unicode="&#xe80f;" d="M959 705a104 104 0 0 0-104-104 104 104 0 0 0-104 104 104 104 0 0 0 104 104 104 104 0 0 0 104-104z m-459 0a355 355 0 0 1-355-355 355 355 0 0 1 355-355 355 355 0 0 1 355 355 355 355 0 0 1-355 355z m147-104a104 104 0 0 0 104-104 104 104 0 0 0-104-104 104 104 0 0 0-104 104 104 104 0 0 0 104 104z m-134 213l0-10c15-1 29-2 44-4l1 11c-15 2-30 3-45 3z m-44-1c-15-1-30-2-45-5l2-10c14 2 29 4 43 5z m133-10l-2-10c14-3 28-7 42-12l3 10c-14 5-28 9-43 12z m-222-4c-14-4-28-8-42-14l3-10c14 5 28 10 42 14z m307-24l-4-10c13-6 26-12 39-19l5 9c-13 7-26 14-40 20z m-391-7c-13-7-26-14-39-22l6-9c12 8 25 15 38 21z m-76-47c-12-9-23-19-34-29l7-8c11 10 22 20 33 28z m-66-61c-10-11-19-22-28-34l8-7c9 12 18 23 28 34z m-53-72c-8-13-15-26-21-39l10-5c6 13 13 26 20 39z m813-27l-10-5c7-13 13-26 18-40l10 4c-5 14-12 28-18 41z m-851-54c-5-14-10-28-13-43l10-2c4 14 8 28 13 42z m883-29l-10-3c4-14 8-29 10-43l11 2c-3 15-6 29-11 44z m-905-57c-2-15-4-30-5-45l11-1c1 15 2 29 4 44z m922-31l-11-1c1-15 2-29 2-44l10 0c0 15 0 30-1 45z m-916-58l-11-1c1-15 2-30 4-44l10 1c-2 14-3 29-3 44z m904-31c-2-14-4-29-7-43l11-2c3 14 5 29 7 44z m-892-56l-11-3c4-14 8-28 13-43l10 4c-5 14-9 28-12 42z m874-29c-4-14-9-28-15-42l10-4c6 14 11 28 15 42z m-846-54l-10-4c6-14 13-27 21-40l9 5c-7 13-14 26-20 39z m812-27c-6-13-14-26-22-38l9-6c8 13 16 26 23 39z m-768-49l-9-6c9-12 18-24 28-35l8 7c-10 11-19 23-27 34z m720-24c-9-11-19-22-30-32l8-8c10 11 21 22 30 33z m-663-41l-7-8c11-10 22-20 34-30l6 9c-11 9-22 18-33 29z m601-21c-11-9-23-18-35-26l6-9c12 9 24 17 36 27z m-532-33l-5-9c12-8 25-16 39-22l4 9c-13 7-25 14-38 22z m460-16c-13-7-26-13-40-19l4-10c14 6 27 13 41 20z m-382-24l-4-10c14-5 29-10 43-14l3 10c-14 4-28 9-42 14z m301-10c-14-4-28-8-42-11l2-10c14 3 29 6 43 11z m-216-13l-2-11c14-3 29-5 44-6l1 11c-15 1-29 3-43 6z m130-5c-14-2-29-2-43-3l0-10c15 0 30 1 45 2z" horiz-adv-x="1000" />

<glyph glyph-name="vuejs" unicode="&#xe810;" d="M697 724h-150l-109-173-94 173h-344l438-749 437 749h-178z m-588-62h105l224-387 223 387h105l-328-563-329 563z" horiz-adv-x="875" />

<glyph glyph-name="react" unicode="&#xe811;" d="M817 504c-11 3-21 7-32 10 2 7 4 14 5 22 24 116 8 210-45 240-51 30-135-1-220-75-8-7-17-14-24-22-6 5-11 10-17 15-88 79-178 112-231 81-51-30-66-118-45-228 2-11 5-22 7-32-12-4-24-8-36-12-104-36-179-93-179-152 0-61 80-122 188-159 9-3 18-6 27-9-3-11-6-23-8-35-21-108-5-194 47-224 52-30 141 1 227 77 7 6 14 12 21 19 8-9 17-17 26-25 84-72 167-101 218-71 52 30 69 123 47 235-2 9-3 18-6 27 7 1 13 3 19 5 112 38 194 98 194 160 0 59-77 116-183 153z m-264 166c72 63 140 88 171 70 33-19 46-95 25-196-1-7-3-13-5-20-43 10-87 17-131 21-25 36-53 71-83 104 7 7 15 14 23 21z m-226-421c10-17 20-34 30-50-30 3-60 8-90 15 8 28 19 57 32 86 9-17 18-34 28-51z m-60 235c29 7 58 12 89 16-10-17-20-33-30-50-9-17-19-34-27-51-13 29-23 58-32 85z m54-134c13 27 27 53 42 79s31 51 47 76c30 2 60 3 90 3s61-1 90-3c16-24 32-50 47-75s29-53 43-79c-14-27-28-54-43-80-14-26-30-51-47-76-29-2-59-3-90-3s-60 1-89 2c-17 25-33 51-48 77s-29 52-42 79z m353-100c10 17 19 34 28 52 13-28 24-57 33-87-30-6-61-12-92-15 11 16 21 33 31 50z m28 149c-9 17-19 35-29 51-9 17-19 33-29 50 31-4 61-10 89-16-9-29-19-57-31-85z m-202 220c21-22 40-46 58-70-38 2-77 2-116 0 19 25 39 49 58 70z m-226 120c33 19 106-8 182-76 5-5 10-9 15-14-30-33-58-68-84-104-44-4-88-11-131-20-2 10-5 20-7 30-18 95-6 166 25 184z m-48-515c-8 2-16 5-24 7-42 14-89 34-123 61-20 14-33 35-37 59 0 36 62 81 151 112 11 4 22 8 34 11 13-42 29-84 47-124-18-41-34-83-48-126z m228-192c-32-29-70-53-110-69-22-10-47-11-69-2-31 18-44 87-27 180 2 11 5 22 8 32 43-9 87-16 132-19 26-36 54-71 85-104-7-6-13-12-19-18z m48 48c-20 21-40 45-60 71 19-1 39-1 58-1 20 0 40 0 59 1-18-25-37-48-57-71z m255-59c-2-24-14-46-32-61-31-18-98 6-169 67-8 7-16 15-25 22 30 33 58 68 83 105 44 4 89 11 133 21 2-8 3-16 5-24 10-42 11-86 5-130z m35 210c-5-1-11-3-16-5-14 43-31 84-50 125 19 40 35 81 48 123 10-3 20-6 29-9 91-32 155-78 155-114 0-38-68-87-166-120z m-292 30c49 0 90 40 90 89s-41 90-90 90c-49 0-89-41-89-90s40-89 89-89z" horiz-adv-x="1000" />

<glyph glyph-name="pleroma" unicode="&#xe812;" d="M559 108v-239h167a75 75 0 0 1 75 75v164z m0 723v-481h167a75 75 0 0 1 75 75v406z m-285 0a75 75 0 0 1-75-75v-887h239v962z" horiz-adv-x="1000" />

<glyph glyph-name="nuxt" unicode="&#xe813;" d="M633 532c23 39 81 39 104 0l250-425c23-39-6-88-52-88h-500c-46 0-75 49-52 88z m-191 114c-28 47-97 47-125 0l-302-520c-28-48 7-107 62-107h236c-23 20-32 56-14 87l229 392z" horiz-adv-x="1000" />

<glyph glyph-name="home" unicode="&#xe814;" d="M786 296v-267q0-15-11-25t-25-11h-214v214h-143v-214h-214q-15 0-25 11t-11 25v267q0 1 0 2t0 2l321 264 321-264q1-1 1-4z m124 39l-34-41q-5-5-12-6h-2q-7 0-12 3l-386 322-386-322q-7-4-13-3-7 1-12 6l-35 41q-4 6-3 13t6 12l401 334q18 15 42 15t43-15l136-113v108q0 8 5 13t13 5h107q8 0 13-5t5-13v-227l122-102q6-4 6-12t-4-13z" horiz-adv-x="928.6" />

<glyph glyph-name="search" unicode="&#xe815;" d="M643 386q0 103-73 176t-177 74-177-74-73-176 73-177 177-73 177 73 73 177z m286-465q0-29-22-50t-50-21q-30 0-50 21l-191 191q-100-69-223-69-80 0-153 31t-125 84-84 125-31 153 31 152 84 126 125 84 153 31 153-31 125-84 84-126 31-152q0-123-69-223l191-191q21-21 21-51z" horiz-adv-x="928.6" />

<glyph glyph-name="share" unicode="&#xe816;" d="M650 200q62 0 106-43t44-107q0-62-44-106t-106-44-106 44-44 106q0 6 1 14t1 12l-260 156q-42-32-92-32-62 0-106 44t-44 106 44 106 106 44q54 0 92-30l260 156q0 4-1 12t-1 12q0 62 44 106t106 44 106-43 44-107q0-62-44-106t-106-44q-52 0-90 32l-262-156q2-8 2-26 0-16-2-24l262-156q36 30 90 30z" horiz-adv-x="800" />

<glyph glyph-name="archive" unicode="&#xe817;" d="M840 600l0-50-696 0 0 50q0 22 13 35t25 15l608 0q6 0 14-1t22-14 14-35z m-148 150q6 0 14-1t22-14 14-35l-498 0q0 22 13 35t25 15l410 0z m248-200q34-32 38-46 6-18 0-54l-76-450q-4-22-20-35t-28-15l-710 0q-52 0-60 50-6 26-39 223t-39 227q-10 22-3 44t10 26 21 20l10 10 30 30 0-80 836 0 0 80z m-248-270l0 100-70 0 0-80-260 0 0 80-68 0 0-100q0-50 48-50l300 0q22 0 35 12t13 24z" horiz-adv-x="981" />

<glyph glyph-name="gitea" unicode="&#xe818;" d="M181 627c-10 0-21-1-34-4-14-3-53-12-84-42-71-63-53-163-50-178 2-18 10-69 49-113 72-87 226-85 226-85s19-46 48-87c39-52 79-92 118-97 98 0 295 0 295 0s19 0 44 16c22 14 42 37 42 37s20 21 48 71c8 15 16 29 22 43 0 0 86 183 86 361-2 54-15 64-18 67-6 6-15 6-15 6s-183-10-278-12c-21-1-41-1-62-1v-183c-8 4-17 8-26 12 0 57 0 170 0 170-45 0-139 4-139 4s-221 11-245 13c-8 1-17 2-27 2z m19-76s11-92 25-147c11-45 38-121 38-121s-40 5-67 14c-40 13-57 29-57 29s-30 21-45 62c-26 70-2 112-2 112s13 35 60 47c21 5 48 4 48 4z m334-104c12 1 23-5 23-5l36-17c-7-15-15-30-22-44-10 0-20-6-25-15-5-10-4-22 3-31l-38-79c-13 0-24-9-27-21s3-26 14-32c12-6 27-2 35 9 8 11 7 26-2 36l37 77c2-1 6-1 10 0 6 2 11 6 11 6 6-3 13-6 20-10 8-3 15-7 21-11 2-1 3-2 5-3 2-2 5-5 7-9 3-8-3-23-3-23-3-12-29-63-29-63-12 0-24-8-27-20-4-12 1-27 14-33s27-3 35 8c8 11 7 26-2 36 3 5 6 11 9 17 8 16 21 48 21 48 1 2 9 16 4 33-4 18-20 26-20 26-19 12-45 24-45 24s0 6-2 11c-2 5-4 8-6 10 7 14 14 29 21 43l118-57s20-9 24-25c3-12-1-22-3-27-9-24-85-177-85-177s-10-23-31-24c-9-1-16 2-16 2s-1 0-8 3l-177 86s-17 9-20 24c-3 13 4 29 4 29l85 174s8 16 19 21c1 0 4 1 7 2 2 1 3 1 5 1z" horiz-adv-x="1000" />

<glyph glyph-name="svelte-logo" unicode="&#xe829;" d="M780 718l0 0c-93 133-277 172-409 87l-233-148c-64-40-108-105-121-178-11-62-2-125 28-181-20-30-34-64-40-100-14-76 4-153 48-216 93-133 276-172 409-87l233 148c63 40 107 105 120 178 11 62 2 125-27 181 19 30 33 64 40 100 13 76-5 153-48 216z m-67-191c-2-7-4-14-6-22l-4-13-12 9c-28 20-58 36-91 45l-9 3 1 9c1 13-3 24-10 35-13 20-37 28-60 22-5-2-9-3-14-6l-233-149c-12-7-20-19-21-32-3-14 1-28 9-40 13-19 37-27 59-22 6 2 10 4 15 6l89 57c14 9 30 16 47 20 75 20 155-10 198-73 27-38 38-84 30-130-8-44-34-83-72-108l-234-148c-15-9-31-16-48-20h0c-75-20-154 9-198 73-27 37-37 84-29 129 1 8 3 15 5 22l5 13 11-9c28-20 58-35 91-45l9-3-1-9c-1-12 3-25 10-35 13-19 38-27 60-22 5 2 10 4 14 6l233 148c12 8 20 19 23 33 2 13-1 27-9 39-14 20-38 28-60 22-6-2-10-3-15-6l-89-56c-14-9-30-16-47-21-75-19-155 11-199 75-27 38-38 84-30 130 8 44 34 84 73 108l234 148c14 9 30 16 47 20 75 20 154-9 198-73 27-38 38-85 30-130z" horiz-adv-x="832" />

<glyph glyph-name="bluesky" unicode="&#xe82a;" d="M256 767c126-94 261-285 310-388 50 103 185 294 310 388 91 68 237 121 237-47 0-33-19-281-30-321-39-139-182-175-308-153 221-38 277-163 156-288-231-237-332 60-358 136-5 14-7 20-7 15 0 5-2-1-7-15-26-76-127-373-358-136-121 125-65 250 156 288-126-22-269 14-308 153-11 40-30 288-30 321 0 168 147 115 237 47z" horiz-adv-x="1132" />

<glyph glyph-name="github-circled" unicode="&#xf09b;" d="M429 779q116 0 215-58t156-156 57-215q0-140-82-252t-211-155q-15-3-22 4t-7 17q0 1 0 43t0 75q0 54-29 79 32 3 57 10t53 22 45 37 30 58 11 84q0 67-44 115 21 51-4 114-16 5-46-6t-51-25l-21-13q-52 15-107 15t-108-15q-8 6-23 15t-47 22-47 7q-25-63-5-114-44-48-44-115 0-47 12-83t29-59 45-37 52-22 57-10q-21-20-27-58-12-5-25-8t-32-3-36 12-31 35q-11 18-27 29t-28 14l-11 1q-12 0-16-2t-3-7 5-8 7-6l4-3q12-6 24-21t18-29l6-13q7-21 24-34t37-17 39-3 31 1l13 3q0-22 0-50t1-30q0-10-8-17t-22-4q-129 43-211 155t-82 252q0 117 58 215t155 156 216 58z m-267-616q2 4-3 7-6 1-8-1-1-4 4-7 5-3 7 1z m18-19q4 3-1 9-6 5-9 2-4-3 1-9 5-6 9-2z m16-25q6 4 0 11-4 7-9 3-5-3 0-10t9-4z m24-23q4 4-2 10-7 7-11 2-5-5 2-11 6-6 11-1z m32-14q1 6-8 9-8 2-10-4t7-9q8-3 11 4z m35-3q0 7-10 6-9 0-9-6 0-7 10-6 9 0 9 6z m32 5q-1 7-10 5-9-1-8-8t10-4 8 7z" horiz-adv-x="857.1" />

<glyph glyph-name="rss" unicode="&#xf09e;" d="M214 100q0-45-31-76t-76-31-76 31-31 76 31 76 76 31 76-31 31-76z m286-69q1-15-9-26-10-12-27-12h-75q-14 0-24 9t-11 23q-12 128-103 219t-219 103q-14 1-23 11t-9 24v75q0 16 12 26 9 10 24 10h3q89-7 170-45t145-101q63-63 101-145t45-171z m286-1q1-15-10-26-10-11-26-11h-80q-14 0-25 10t-10 23q-7 120-57 228t-129 188-188 129-227 57q-14 1-24 11t-10 24v80q0 16 11 26 10 10 25 10h1q147-8 280-67t238-164q104-104 164-238t67-280z" horiz-adv-x="785.7" />

<glyph glyph-name="html5" unicode="&#xf13b;" d="M631 517l9 98h-494l26-298h342l-12-128-110-29-110 29-7 78h-97l12-155 202-55h2v0l200 55 28 304h-359l-8 101h376z m-631 262h786l-72-803-322-90-321 90z" horiz-adv-x="785.7" />

<glyph glyph-name="reddit-alien" unicode="&#xf281;" d="M1000 378q0-32-16-59t-45-40q7-26 7-54 0-86-60-160t-162-117-223-42-223 42-162 117-59 160q0 26 6 53-28 13-46 41t-17 59q0 46 32 78t79 33q48 0 81-35 122 85 287 90l65 291q2 7 9 12t14 2l206-45q10 21 30 33t44 13q35 0 59-24t25-59-25-59-59-25-59 24-24 59l-186 42-58-264q167-5 289-89 33 34 80 34 46 0 79-33t32-78z m-767-111q0-35 25-59t58-25 60 25 24 59-24 59-60 24q-34 0-58-25t-25-58z m452-198q6 6 6 14t-6 15q-5 5-14 5t-14-5q-23-24-68-35t-89-11-89 11-68 35q-6 5-14 5t-14-5q-6-6-6-14t6-15q24-24 66-38t68-17 51-2 51 2 68 17 66 38z m-1 114q34 0 59 25t24 59q0 34-25 58t-58 25q-35 0-60-24t-24-59 24-59 60-25z" horiz-adv-x="1000" />
</font>
</defs>
</svg>
